foo_dr.txt

(1 KB) Pobierz
foobar2000 1.1.7 / Dynamic Range Meter 1.1.1
log date: 2014-04-01 20:33:17

--------------------------------------------------------------------------------
Analyzed: UFO / Force It
--------------------------------------------------------------------------------

DR         Peak         RMS     Duration Track
--------------------------------------------------------------------------------
DR8       -0.07 dB    -9.33 dB      3:57 01-Let It Roll
DR8        0.00 dB    -9.50 dB      3:40 02-Shoot Shoot
DR10      -0.07 dB   -12.18 dB      4:09 03-High Flyer
DR8       -0.07 dB    -9.93 dB      3:22 04-Love Lost Love
DR8       -0.07 dB   -10.39 dB      5:18 05-Out In The Street
DR7       -0.07 dB    -9.45 dB      3:50 06-Mother Mary
DR8       -0.07 dB   -10.13 dB      4:02 07-Too Much Of Nothing
DR7       -0.07 dB    -9.59 dB      3:35 08-Dance Your Life Away
DR8       -0.07 dB   -10.13 dB      6:18 09-This Kid's (Including 'Between The Walls')
DR10      -0.07 dB   -13.27 dB      4:49 10-A Million Miles / Bonus Track
DR8       -0.07 dB    -9.92 dB      5:00 11-Let It Roll (Live) / Bonus Track
DR9       -0.07 dB   -10.80 dB      4:19 12-This Kid's (Live) / Bonus Track
--------------------------------------------------------------------------------

Number of tracks:  12
Official DR value: DR8

Samplerate:        44100 Hz
Channels:          2
Bits per sample:   16
Bitrate:           1411 kbps
Codec:             PCM
================================================================================

Zgłoś jeśli naruszono regulamin